VA - 25 Sensual Caribbean Grooves (Hotel Chill Caribbean)(2008) APE MP3

VA - 25 Sensual Caribbean Grooves (Hotel Chill Caribbean)(2008) APE MP3 free download


Performer: VA
Album: 25 Sensual Caribbean Grooves
Label: Water Music Records
Catalog #: B00175G7KO
Style: Chillout, Lounge, Jazzy
Year: 2008
Format: MP3 | APE (image + .cue)
Bitrate: 320kbps | lossless
Amount of tracks: 13+12
Size RAR: ~ 344+503|452 mb
Upload: letitbit.net, depositfiles.com, filesonic.com
СD1
CD2
Tracklist:
-----------------
CD1
01. Jose Sebeloue - Inda Love (05:24)
02. Gwanda Soul Orchestra - Drum Bass Paradise (04:06)
03. Sister Kat - Ce Sa En Te Vle (07:14)
04. Gwanda Soul Orchestra - Conversation With... (05:30)
05. Love Feat. Sister T - Raining Stars (05:45)
06. Border Sound - Rhum, Sex & Coconuts (05:26)
07. Xana Luz - Palmitas De Rio (05:27)
08. Love Syndikat Feat. Dede St. Prix - Welcome In Islands (04:10)
09. Jacob Desvarieux - La Ri Z'abymes (05:06)
10. John T'man Taylor - Don't Wanna Sleep (05:28)
11. Eva Mars - Midnight Moon (04:54)
12. Dj Love - Vin Danse Evу Mwen (05:01)
13. Border Sound Feat. Dede St. Prix - Press Play (06:15)
--------------------------
Total time [69:52]
CD2
01. Claude Chalie, Raven, Carlos Campos,Jacob Desvarieux, Kas - DJ's Dub (06:20)
02. Gwanda Sol Orchestra - Love To Love You Baby (04:26)
03. Caribbean Team - Zouk & Love (05:41)
04. Soul Machine - Shaft Jam (07:07)
05. Juanito - Esta Es La Vida (04:38)
06. Carlos Campos & Xana Luz - Chacha Lagoon (05:43)
07. Ralph Thamar feat. Sister Kat - Dancing Paradise (04:08)
08. Zaia - Bugle Sound (03:59)
09. Ralph Thamar - Destafinado (03:31)
10. Sister Kat - Lumie En Vie En Mwen (04:43)
11. Henrick Garell - Ocean's Story (04:21)
12. Ralph Thamar - Sax On The Beach (04:10)
--------------------------
Total time [58:52]
Exact Audio Copy V0.99 prebeta 5 from 4. May 2009
EAC extraction logfile from 10. December 2009, 1:06
25 Sensual Caribbean Grooves / Hotel Chill Caribbean Cd1
Used drive : YAMAHA CRW-F1E Adapter: 0 ID: 2
Read mode : Secure
Utilize accurate stream : Yes
Defeat audio cache : Yes
Make use of C2 pointers : No
Read offset correction : 733
Overread into Lead-In and Lead-Out : Yes
Fill up missing offset samples with silence : Yes
Delete leading and trailing silent blocks : No
Null samples used in CRC calculations : Yes
Used interface : Installed external ASPI interface
Used output format : Monkey's Audio Lossless Encoder v3.99 DLL
Sample format : High Lossless Compression
Use compression offset : 0
TOC of the extracted CD
Track | Start | Length | Start sector | End sector
---------------------------------------------------------
1 | 0:00.00 | 5:24.14 | 0 | 24313
2 | 5:24.14 | 4:06.40 | 24314 | 42803
3 | 9:30.54 | 7:14.19 | 42804 | 75372
4 | 16:44.73 | 5:30.23 | 75373 | 100145
5 | 22:15.21 | 5:45.38 | 100146 | 126058
6 | 28:00.59 | 5:26.39 | 126059 | 150547
7 | 33:27.23 | 5:27.24 | 150548 | 175096
8 | 38:54.47 | 4:10.71 | 175097 | 193917
9 | 43:05.43 | 5:06.49 | 193918 | 216916
10 | 48:12.17 | 5:28.22 | 216917 | 241538
11 | 53:40.39 | 4:54.09 | 241539 | 263597
12 | 58:34.48 | 5:01.56 | 263598 | 286228
13 | 63:36.29 | 6:15.71 | 286229 | 314424
Range status and errors
Selected range
Filename G:AUDIO - IAudio CD - I Ambient - Chill Out - Lounge - Easy Listening 25 Sensual Caribbean Grooves - Hotel Chill Caribbean 2CD 200825 Sensual Caribbean Grooves - Hotel Chill Caribbean Cd1.ape
Peak level 98.8 %
Range quality 100.0 %
Test CRC 92F387DF
Copy CRC 92F387DF
Copy OK
No errors occurred

AccurateRip summary

Track 1 accurately ripped (confidence 1) [221184FD]
Track 2 accurately ripped (confidence 1) [4AFE0769]
Track 3 accurately ripped (confidence 1) [6A1C56FF]
Track 4 accurately ripped (confidence 1) [BE47F9C0]
Track 5 accurately ripped (confidence 1) [226B0B5A]
Track 6 accurately ripped (confidence 1) [3E4F8502]
Track 7 accurately ripped (confidence 1) [3EC71744]
Track 8 accurately ripped (confidence 1) [52BCC4EF]
Track 9 accurately ripped (confidence 1) [35659629]
Track 10 accurately ripped (confidence 1) [5B9CE933]
Track 11 accurately ripped (confidence 1) [48F30196]
Track 12 accurately ripped (confidence 1) [950EC098]
Track 13 accurately ripped (confidence 1) [AF0BBB44]

All tracks accurately ripped
End of status report
============================
Exact Audio Copy V0.99 prebeta 5 from 4. May 2009
EAC extraction logfile from 10. December 2009, 3:15
25 Sensual Caribbean Grooves / Hotel Chill Caribbean CD2
Used drive : YAMAHA CRW-F1E Adapter: 0 ID: 2
Read mode : Secure
Utilize accurate stream : Yes
Defeat audio cache : Yes
Make use of C2 pointers : No
Read offset correction : 733
Overread into Lead-In and Lead-Out : Yes
Fill up missing offset samples with silence : Yes
Delete leading and trailing silent blocks : No
Null samples used in CRC calculations : Yes
Used interface : Installed external ASPI interface
Used output format : Monkey's Audio Lossless Encoder v3.99 DLL
Sample format : High Lossless Compression
Use compression offset : 0
TOC of the extracted CD
Track | Start | Length | Start sector | End sector
---------------------------------------------------------
1 | 0:00.00 | 6:20.36 | 0 | 28535
2 | 6:20.36 | 4:26.48 | 28536 | 48533
3 | 10:47.09 | 5:41.73 | 48534 | 74181
4 | 16:29.07 | 7:07.35 | 74182 | 106241
5 | 23:36.42 | 4:38.17 | 106242 | 127108
6 | 28:14.59 | 5:43.10 | 127109 | 152843
7 | 33:57.69 | 4:08.03 | 152844 | 171446
8 | 38:05.72 | 3:59.23 | 171447 | 189394
9 | 42:05.20 | 3:31.53 | 189395 | 205272
10 | 45:36.73 | 4:43.37 | 205273 | 226534
11 | 50:20.35 | 4:21.58 | 226535 | 246167
12 | 54:42.18 | 4:10.44 | 246168 | 264961
Range status and errors
Selected range
Filename G:AUDIO - IAudio CD - I Ambient - Chill Out - Lounge - Easy Listening 25 Sensual Caribbean Grooves - Hotel Chill Caribbean 2CD 200825 Sensual Caribbean Grooves - Hotel Chill Caribbean CD2.ape
Peak level 98.8 %
Range quality 99.9 %
Test CRC 5337C458
Copy CRC 5337C458
Copy OK
No errors occurred

AccurateRip summary

Track 1 accurately ripped (confidence 1) [5CFFDE4E]
Track 2 accurately ripped (confidence 1) [BFC9273F]
Track 3 accurately ripped (confidence 1) [0200A96B]
Track 4 accurately ripped (confidence 1) [EEB4C06F]
Track 5 accurately ripped (confidence 1) [10FEE415]
Track 6 accurately ripped (confidence 1) [97292FBD]
Track 7 accurately ripped (confidence 1) [A0E20306]
Track 8 accurately ripped (confidence 1) [A3B77F1F]
Track 9 accurately ripped (confidence 1) [A7E5F06A]
Track 10 accurately ripped (confidence 1) [9472352E]
Track 11 accurately ripped (confidence 1) [71047EE9]
Track 12 accurately ripped (confidence 1) [C4ABBAE0]

All tracks accurately ripped
End of status report
MP3
--DepositFiles.com--
--LetitBit.net--
--Filesonic.com--
APE
--Filesonic.com--



links for download at low speed




    Related music
  • Roomtone Studio - Siamese Wind (2007) - Music, New Age, Other, Easy Listening, FLAC / APE
  • Mr.Karavek - Pradubdao (2007) - Music, New Age, Easy Listening, FLAC / APE
  • M Path - Journey To The Heart (2003) - Music, New Age, FLAC / APE
  • George Duke - Illusions (1995) WAV - Music, Jazz, Smooth Jazz, FLAC / APE
  • Sweet Nuj - Sweet Think (2008) - Music, Jazz, Vocal Jazz, FLAC / APE
  • Lai Muang - The Spirit Of Lanna (2008) - Music, New Age, FLAC / APE
  • Barney Wilen - French Ballads (1987) Flac - Jazz, Music, FLAC / APE
  • Warrant - Dog Eat Dog (Japan Release +1) (1992) - Music, Rock, Metal, FLAC / APE
  • Crack The Sky - Machine (2010) - Music, Rock, Alternative, FLAC / APE
  • Shakatak - Bitter Sweet (1991) (LOSSLESS) - Music, Jazz, Smooth Jazz, Funk, FLAC / APE
  • Billy Cobham - Warning (1985) - Music, Jazz, FLAC / APE
  • Diferenz  Jazz Con Bazz - Epilogue (1996) - Music, Jazz, Nu Jazz, FLAC / APE